ПРАВИЛА ФОРУМА | FAQ

Здравствуйте, гость ( Авторизация | Регистрация )


206 страниц V  « < 203 204 205 206 >  
Closed TopicStart new topic
> Обсуждаем видеозаписи
Liger
сообщение 6th Nov 11 - 20:17
Сообщение #3061


В красной книге форума.

Группа: Забанен
Сообщений: 512
Регистрация: 1-Aug 10
Сообщения понравились: 0 раз

Откуда: СПБ



Лень мне читать. Скажите пожалуйста, Аврил этой наглой тетке вломила? Хукс справа или слева?
Go to the top of the page
Вставить ник
+Quote Post
Райн
сообщение 7th Nov 11 - 00:12
Сообщение #3062


True FAN

Группа: Members
Сообщений: 2680
Регистрация: 8-Jul 10
Сообщения понравились: 0 раз




Go to the top of the page
Вставить ник
+Quote Post
xD007
сообщение 7th Nov 11 - 02:03
Сообщение #3063




Группа: Members
Сообщений: 917
Регистрация: 10-Apr 11
Сообщения понравились: 3 раза




скорая, нло, полиция, пожарные, папарацци, братки.
Go to the top of the page
Вставить ник
+Quote Post
Jim
сообщение 8th Nov 11 - 08:22
Сообщение #3064


Super FAN

Группа: Members
Сообщений: 802
Регистрация: 20-Mar 10
Сообщения понравились: 0 раз

Откуда: Барнаул



Уже даже по новостям показали. Вот, блин, теперь везде эту тему мусолить будут и переврут всё на 100500 раз.

http://www.ntv.ru/video/novosti/264683

Сообщение отредактировал Jim - 8th Nov 11 - 08:24
Go to the top of the page
Вставить ник
+Quote Post
AngeLOK=)
сообщение 8th Nov 11 - 10:39
Сообщение #3065


I'm the King!

Группа: Members
Сообщений: 683
Регистрация: 9-Mar 10
Сообщения понравились: 0 раз

Откуда: Dreams



Jim, Оо подростки?!
мдаа уж..
Go to the top of the page
Вставить ник
+Quote Post
Army of aliens
сообщение 8th Nov 11 - 11:28
Сообщение #3066


Alien thoughts

Группа: Members
Сообщений: 1515
Регистрация: 31-Oct 10
Сообщения понравились: 0 раз

Откуда: The dead heart



Цитата(Jim @ 8th Nov 11 - 08:22) *
Уже даже по новостям показали. Вот, блин, теперь везде эту тему мусолить будут и переврут всё на 100500 раз.

http://www.ntv.ru/video/novosti/264683

Пока ещё не переврали
Go to the top of the page
Вставить ник
+Quote Post
Snow
сообщение 8th Nov 11 - 16:03
Сообщение #3067


Snow Cooks Trolls

Группа: Avril Ru Team
Сообщений: 12082
Регистрация: 12-Dec 08
Сообщения понравились: 30 раз

Откуда: Victoria, B.C.

Награды:
Лучший Представитель Avril Ru Team 2011



правду говорят
только вот аврил в дракк не могла не вступить, мне кажется
Go to the top of the page
Вставить ник
+Quote Post
AngeLOK=)
сообщение 8th Nov 11 - 16:12
Сообщение #3068


I'm the King!

Группа: Members
Сообщений: 683
Регистрация: 9-Mar 10
Сообщения понравились: 0 раз

Откуда: Dreams



Snow, да, кстати, мне тоже кажется, что Аврил не будет прятаться за чей-то спиной, если ее бьют.. она все-таки у нас боевая)
Go to the top of the page
Вставить ник
+Quote Post
Roo
сообщение 9th Nov 11 - 07:55
Сообщение #3069


True FAN

Группа: Media Avril.Ru
Сообщений: 2681
Регистрация: 15-Mar 09
Сообщения понравились: 162 раза


Награды:
Самый Большой Фан Аврил 2011



Avril Lavigne - Nobody's Home (Alternative Version) HQ (нет тега, качество картинки намного лучше)



Скачать - http://www.mediafire.com/?64k3t33rkusbb2t
Go to the top of the page
Вставить ник
+Quote Post
I Have A Dream
сообщение 9th Nov 11 - 11:58
Сообщение #3070


O-O

Группа: Members
Сообщений: 4325
Регистрация: 10-Jun 10
Сообщения понравились: 13 раз

Откуда: Санкт-Петербург

Награды:
Лучший новичок форума 2010



Lukasz, спасибо
Go to the top of the page
Вставить ник
+Quote Post
Агент 007
сообщение 9th Nov 11 - 13:24
Сообщение #3071


Голос Оттуда

Группа: Members
Сообщений: 1654
Регистрация: 6-Aug 09
Сообщения понравились: 0 раз




В avi формате пригодном для бытовых плееров.

Avril_Lavigne_-_Nobody's_Home_(Alternative_version)_www.avril.ru.avi



Цитата
Video: Xvid 720x576 25.00fps 1880kbps [Video 0]
Audio: MPEG Audio Layer 3 48000Hz stereo 256kbps [Audio 1]


Цитата
General
Complete name : Avril_Lavigne_-_Nobody's_Home_(Alternative_version)_www.avril.ru.avi
Format : AVI
Format/Info : Audio Video Interleave
File size : 54.8 MiB
Duration : 3mn 33s
Overall bit rate : 2 149 Kbps
Writing application : MEncoder SVN-r30881(20100311-gcc4.3.3)
Writing library : MPlayer

Video
ID : 0
Format : MPEG-4 Visual
Format profile : Advanced Simple@L5
Format settings, BVOP : Yes
Format settings, QPel : No
Format settings, GMC : No warppoints
Format settings, Matrix : Default (H.263)
Codec ID : XVID
Codec ID/Hint : XviD
Duration : 3mn 33s
Bit rate : 1 881 Kbps
Width : 720 pixels
Height : 576 pixels
Display aspect ratio : 4:3
Frame rate : 25.000 fps
Standard : PAL
Color space : YUV
Chroma subsampling : 4:2:0
Bit depth : 8 bits
Scan type : Progressive
Compression mode : Lossy
Bits/(Pixel*Frame) : 0.181
Stream size : 47.9 MiB (87%)
Writing library : XviD 1.2.1 (UTC 2008-12-04)

Audio
ID : 1
Format : MPEG Audio
Format version : Version 1
Format profile : Layer 3
Mode : Joint stereo
Codec ID : 55
Codec ID/Hint : MP3
Duration : 3mn 33s
Bit rate mode : Constant
Bit rate : 256 Kbps
Channel(s) : 2 channels
Sampling rate : 48.0 KHz
Compression mode : Lossy
Delay relative to video : 40ms
Stream size : 6.52 MiB (12%)
Alignment : Aligned on interleaves
Interleave, duration : 24 ms (0.60 video frame)
Interleave, preload duration : 504 ms
Writing library : LAME3.98
Go to the top of the page
Вставить ник
+Quote Post
Райн
сообщение 11th Nov 11 - 04:51
Сообщение #3072


True FAN

Группа: Members
Сообщений: 2680
Регистрация: 8-Jul 10
Сообщения понравились: 0 раз




http://www.youtube.com/watch?feature=playe...p;v=Fns7R34RWgE
Go to the top of the page
Вставить ник
+Quote Post
AngeLOK=)
сообщение 11th Nov 11 - 04:58
Сообщение #3073


I'm the King!

Группа: Members
Сообщений: 683
Регистрация: 9-Mar 10
Сообщения понравились: 0 раз

Откуда: Dreams



Rock, а что тут? тут на целый час... а у меня скорость инета не настолько быстра, чтобы это посмотреть..
Go to the top of the page
Вставить ник
+Quote Post
Райн
сообщение 11th Nov 11 - 05:23
Сообщение #3074


True FAN

Группа: Members
Сообщений: 2680
Регистрация: 8-Jul 10
Сообщения понравились: 0 раз




Документалка о Аврил
Go to the top of the page
Вставить ник
+Quote Post
AngeLOK=)
сообщение 11th Nov 11 - 05:50
Сообщение #3075


I'm the King!

Группа: Members
Сообщений: 683
Регистрация: 9-Mar 10
Сообщения понравились: 0 раз

Откуда: Dreams



Rock, круть) а на каком языке?)
Go to the top of the page
Вставить ник
+Quote Post

206 страниц V  « < 203 204 205 206 >
Closed TopicStart new topic
1 чел. читают эту тему (гостей: 1, скрытых пользователей: 0)
Пользователей: 0

 



Текстовая версия Сейчас: 25th Sep 18 - 10:33

  Рейтинг@Mail.ru  

iMoan.ru - онлайн-магазин товаров для взрослых AirBee Magic Kegel Master Женские советы
© Avril Ru Team, 2002-2015. Для лиц старше 16 лет. Разработано: Web solution - создание сайтов и реклама в сети.